百度云资源论坛

 找回密码
 立即注册
打印 上一主题 下一主题

晚宴上的比特丽兹 Beatriz.at.Dinner.2017.720p.BluRay.x264-CADAVER 3.28GB

[复制链接]
跳转到指定楼层
楼主



帖子完整标题:晚宴上的比特丽兹 Beatriz.at.Dinner.2017.720p.BluRay.x264-CADAVER 3.28GB




◎译  名 晚宴上的比特丽兹
◎片  名 Beatriz at Dinner
◎年  代 2017
◎产  地 美国
◎类  别 剧情
◎语  言 英语 / 西班牙语
◎上映日期 2017-01-23(圣丹斯电影节) / 2017-06-09(美国)
◎IMDb评分  6.0/10 from 8183 users
◎片  长 83分钟
◎导  演 米盖尔·阿尔特塔 Miguel Arteta
◎编  剧 麦克·怀特 Mike White
◎主  演 萨尔玛·海耶克 Salma Hayek
       科洛·塞维尼 Chlo? Sevigny
       约翰·利特高 John Lithgow
       ?#30340;蕁?#24067;里登 Connie Britton
       艾米·兰德克 Amy Landecker
       杰伊·杜普拉斯 Jay Duplass
       约翰·厄尔利 John Early
       大卫·沃肖夫斯基 David Warshofsky
       肖恩·奥布赖恩 Sean O'Bryan
       恩里克·卡斯蒂略 Enrique Castillo
       娜塔莉亚·阿贝利拉 Natalia Abelleyra
       索莱达·圣·希莱尔 Soledad St. Hilaire


◎标  签 美国 | 2017 | 剧情 | 政治 | 阶级 | 种族 | 喜剧 | 圣丹斯

◎简  介  

  比特丽兹是一位普通的理疗师,一次因赴豪门为凯西太太按摩,车子抛锚无法?#23548;遙?#21463;邀参加凯西太太加的工作晚宴,除阶级隔阂外,比特丽兹还遇见了自己最无法忍受的“仇人”,一场别开生面的晚宴?#28304;?#24320;始...

◎获奖情况  

  第89届美国国家评论协会奖(2017)
  十佳独立电影

  第33届美国独立精神奖(2018)
  最佳女主角(提名) 萨尔玛·海耶克
  最佳剧本(提名) 麦克·怀特
Video
ID                                       : 1
Format                                   : AVC
Format/Info                              : Advanced Video Codec
Format settings                          : CABAC / 9 Ref Frames
Format settings, CABAC                   : Yes
Format settings, Reference frames        : 9 frames
Codec ID                                 : V_MPEG4/ISO/AVC
Duration                                 : 1 h 21 min
Bit rate                                 : 5 293 kb/s
Width                                    : 1 280 pixels
Height                                   : 720 pixels
Display aspect ratio                     : 16:9
Frame rate mode                          : Constant
Frame rate                               : 23.976 (24000/1001) FPS
Color space                              : YUV
Chroma subsampling                       : 4:2:0
Bit depth                                : 8 bits
Scan type                                : Progressive
Bits/(Pixel*Frame)                       : 0.240
Stream size                              : 3.02 GiB (92%)
Writing library                          : x264 core 158 r2984 3759fcb
Encoding settings                        : cabac=1 / ref=9 / deblock=1:-3:-3 / analyse=0x3:0x133 / me=umh / subme=9 / psy=1 / psy_rd=1.00:0.00 / mixed_ref=1 / me_range=24 / chroma_me=1 / trellis=1 / 8x8dct=1 / cqm=0 / deadzone=21,11 / fast_pskip=0 / chroma_qp_offset=-2 / threads=6 / lookahead_threads=1 / sliced_threads=0 / nr=0 / decimate=1 / interlaced=0 / bluray_compat=0 / constrained_intra=0 / bframes=8 / b_pyramid=2 / b_adapt=2 / b_bias=0 / direct=3 / weightb=1 / open_gop=0 / weightp=2 / keyint=250 / keyint_min=23 / scenecut=40 / intra_refresh=0 / rc_lookahead=60 / rc=2pass / mbtree=1 / bitrate=5293 / ratetol=1.0 / qcomp=0.60 / qpmin=0 / qpmax=69 / qpstep=4 / cplxblur=20.0 / qblur=0.5 / vbv_maxrate=62500 / vbv_bufsize=78125 / nal_hrd=none / filler=0 / ip_ratio=1.40 / aq=1:1.00
Default                                  : Yes
Forced                                   : No

Audio
ID                                       : 2
Format                                   : AC-3
Format/Info                              : Audio Coding 3
Commercial name                          : Dolby Digital
Codec ID                                 : A_AC3
Duration                                 : 1 h 21 min
Bit rate mode                            : Constant
Bit rate                                 : 448 kb/s
Channel(s)                               : 6 channels
Channel layout                           : L R C LFE Ls Rs
Sampling rate                            : 48.0 kHz
Frame rate                               : 31.250 FPS (1536 SPF)
Bit depth                                : 16 bits
Compression mode                         : Lossy
Stream size                              : 262 MiB (8%)
Language                                 : English
Service kind                             : Complete Main
Default                                  : Yes
Forced                                   : No

Menu
00:00:00.000                             : en:00:00:00.000
00:06:01.361                             : en:00:06:01.361
00:11:53.713                             : en:00:11:53.713
00:19:34.173                             : en:00:19:34.173
00:28:54.733                             : en:00:28:54.733
00:35:15.113                             : en:00:35:15.113
00:39:48.595                             : en:00:39:48.595
00:46:42.800                             : en:00:46:42.800
00:55:53.350                             : en:00:55:53.350
01:00:37.843                             : en:01:00:37.843
01:06:27.984                             : en:01:06:27.984
01:14:49.485                             : en:01:14:49.485



                                                                                                                                                                                                        
                                                                                                                                                                                                                                                                                                                                                                                                                                                                                                                                                                                                                                                                                                                                                                                                                                                       3eca09fd90d8fa8ddfece5658f974800.torrent (33.71 KB)


回复

使用道具 举报

小黑屋|百度云资源分享吧 ( 京ICP备15014721号-2 )

本网站所有资源来自网络,如无意中?#22336;?#20102;您的权益,请发?#22987;?#33267; [email protected]om,立即清除相关链接

GMT+8, 2020-1-29 14:55 , Processed in 0.074863 second(s), 20 queries .

Powered by Discuz! X3.2

© 2001-2013 Comsenz Inc.

快速回复 返回顶部 返回列表
亚特兰蒂斯女王闯关
甘肃快3预测专家 幸运飞艇计划app软件下载 北京pk10彩票软件 betapp 李逵劈鱼口诀 11选5 棒球比分规则介绍 福建福彩快3开奖号码表 p3开机号 贵州11选5最大遗查询 北京赛車pk10 北京pk全天计划免费版 三分冠军pk10计划网页 青海快三和值走势图表 河南22选5 打新股稳赚吗